İçeriğe git



Bilgilendirme!

BEKLENEN FİLM SATIŞ KAMPANYASI! AYRINTILAR İÇİN TIKLAYIN!


Resim

The Squeeze (1977) DVDRip - Türkçe Dublaj - Nostalji Film indir -NFSG

* * * * * 1 Oy Kullanılmış Stacy Keach David Hemmings Edward Fox Stephen Boyd Carol White Freddie Starr

  • Cevap İçin Giriş Yapın
Bu konuya 27 yanıt gönderildi

#1
Nobbyy

Nobbyy

    Ceo

  • Administrators
  • 4.406 İleti
  • Konum:Malatya


The%2BSqueeze%2B%281977%29.png





The Squeeze (1977) DVDRip - Türkçe Dublaj - Nostalji Film indir -NFSG



IMDb.gif


http://www.imdb.com/title/tt0076755


-Filmin Konusu-




ekranresmi.png
t%2B%281%29.jpg
t%2B%282%29.jpg
t%2B%283%29.jpg
t%2B%284%29.jpg
t%2B%285%29.jpg
t%2B%286%29.jpg
t%2B%287%29.jpg
t%2B%288%29.jpg
t%2B%289%29.jpg
t%2B%2810%29.jpg
t%2B%2811%29.jpg
t%2B%2812%29.jpg









 

Format                                   : AVI
Format/Info                              : Audio Video Interleave
File size                                : 1.46 GiB
Duration                                 : 1h 46mn
Overall bit rate                         : 1 963 Kbps

Video
ID                                       : 0
Format                                   : MPEG-4 Visual
Format profile                           : Simple@L3
Format settings, BVOP                    : No
Format settings, QPel                    : No
Format settings, GMC                     : No warppoints
Format settings, Matrix                  : Default (H.263)
Codec ID                                 : XVID
Codec ID/Hint                            : XviD
Duration                                 : 1h 46mn
Source duration                          : 1h 46mn
Bit rate                                 : 1 760 Kbps
Width                                    : 704 pixels
Height                                   : 400 pixels
Display aspect ratio                     : 16:9
Frame rate                               : 23.976 fps
Color space                              : YUV
Chroma subsampling                       : 4:2:0
Bit depth                                : 8 bits
Scan type                                : Progressive
Compression mode                         : Lossy
Bits/(Pixel*Frame)                       : 0.261
Stream size                              : 1.31 GiB (90%)
Writing library                          : XviD 1.1.2 (UTC 2006-11-01)

Audio
ID                                       : 1
Format                                   : AC-3
Format/Info                              : Audio Coding 3
Mode extension                           : CM (complete main)
Format settings, Endianness              : Big
Codec ID                                 : 2000
Duration                                 : 1h 46mn
Bit rate mode                            : Constant
Bit rate                                 : 192 Kbps
Channel(s)                               : 2 channels
Channel positions                        : Front: L R
Sampling rate                            : 48.0 KHz
Bit depth                                : 16 bits
Compression mode                         : Lossy
Stream size                              : 147 MiB (10%)
Alignment                                : Aligned on interleaves
Interleave, duration                     : 32 ms (0.77 video frame)





dowload.gif

doldur.gif

SES & SENKRON:

EMCE CANBAY
 

Gizlenmiş İçerik
İndirme Linkini Görmek İçin Vip Üye Olmalısınız. Eğer Vip Üye İseniz Konuya Teşekkür Edip Linkleri Görebilirsiniz.




 


emegesaygi.gif





#2
mtcakir

mtcakir

    Üye

  • Üye
  • 8 İleti

Nobby ve Emce kardeş, çalışmalarınız için çok teşekkürler.

 



#3
crazybeau

crazybeau

    Dublör

  • Üye
  • 130 İleti
  • Konum:Bakırköy

Emeği geçen herkese teşekkürler,çok güzel bir paylaşım.



#4
heraklius

heraklius

    Yönetmen

  • Üye
  • SMS Onaylı
  • 604 İleti

Emeğinize sağlık



#5
cerkes05

cerkes05

    Yeni Üye

  • Üye
  • SMS Onaylı
  • 22 İleti

çok teşekkürler ellerinize sağlık



#6
cerkes05

cerkes05

    Yeni Üye

  • Üye
  • SMS Onaylı
  • 22 İleti

çok teşekkürler ellerinize sağlık



#7
cerkes05

cerkes05

    Yeni Üye

  • Üye
  • SMS Onaylı
  • 22 İleti

çok teşekkür ederim



#8
cerkes05

cerkes05

    Yeni Üye

  • Üye
  • SMS Onaylı
  • 22 İleti

çok teşekkür ederim ellerinize sağlık sağolun



#9
Lost72

Lost72

    Kameraman

  • Üye
  • SMS Onaylı
  • 178 İleti

Teşekkürler..



#10
Magnetic

Magnetic

    Yönetmen

  • Sound Team
  • SMS Onaylı
  • 519 İleti
  • Konum:İstanbul

çok teşekkürler emce üstadım



#11
kesebir

kesebir

    Yönetmen

  • Üye
  • SMS Onaylı
  • 536 İleti
Ellerinize sağlık.Çok teşekkürler.

#12
ozanom

ozanom

    Dublör

  • Üye
  • 104 İleti

Nobby ve Emce kardeş, çalışmalarınız için çok teşekkürler.

teşekkürler



#13
horun

horun

    Kıdemli Üye

  • Üye
  • SMS Onaylı
  • 39 İleti

teşekkürler



#14
Semih

Semih

    Yeni Üye

  • Üye
  • SMS Onaylı
  • 12 İleti

Teşekkürler



#15
dbmaster

dbmaster

    Senarist

  • Sound Team
  • SMS Onaylı
  • 412 İleti
  • Konum:Kocaeli

Emce Canbay'a çok teşekkür ederim.



#16
ahmetkan

ahmetkan

    Kameraman

  • Vip Üye
  • SMS Onaylı
  • 178 İleti
Teşekkürler

#17
mikail02

mikail02

    Üye

  • Üye
  • 4 İleti

sağol



#18
asiyan

asiyan

    Dublör

  • Üye
  • SMS Onaylı
  • 135 İleti

ellerinize sağlık



#19
CAZZİ

CAZZİ

    Yönetmen

  • Üye
  • SMS Onaylı
  • 956 İleti

Emeğinize sağlık



#20
sezgin_neco

sezgin_neco

    Yönetmen

  • Üye
  • SMS Onaylı
  • 633 İleti
  • Konum:DENİZLİ

saol usta elinize sağlık







Benzer Konular, Anahtar Kelimeler & Etiketler: Stacy Keach, David Hemmings, Edward Fox, Stephen Boyd, Carol White, Freddie Starr

0 Kullanıcı konuyu okuyor

0 Kullanıcı, 0 Misafir, 0 Kayıtsız kullanıcı