İçeriğe git


Kampanya!

Efsane Vip + Film Satış Kampanyası Tekrar Sizlerle! Hemen Tıkla Vip Üye Ol!


Resim

Firavunun Gözdesi - The Egyptian (1954) 1080P - Türkçe Dublaj - Nostalji Film indir -NFSG

* * * * * 1 Oy Kullanılmış Jean Simmons Victor Mature Gene Tierney Michael Wilding Bella Darvi Peter Ustinov Edmund Purdom

  • Cevap İçin Giriş Yapın
Bu konuya 37 yanıt gönderildi

#1
Emce Canbay

Emce Canbay

    Yönetmen

  • Admin
  • SMS Onaylı
  • 571 İleti


The%2BEgyptian%2B1954.png




Firavunun Gözdesi-The Egyptian (1954) 1080P - Türkçe Dublaj - Nostalji Film indir -NFSG



IMDb.gif

http://www.imdb.com/title/tt0046949/


-Filmin Konusu-





Yapımı : 1954 - USA

Tür : Dram , Tarihi

Süre: 139 Dak.

Yönetmen : Michael Curtiz

Oyuncular : Jean Simmons , Victor Mature , Gene Tierney

Senaryo : Philip Dunne (screen play), Casey Robinson (screen play)


ekranresmi.png


fg%2B%281%29.jpg
fg%2B%282%29.jpg
fg%2B%283%29.jpg
fg%2B%284%29.jpg
fg%2B%285%29.jpg
fg%2B%286%29.jpg
fg%2B%287%29.jpg
fg%2B%288%29.jpg
fg%2B%289%29.jpg
fg%2B%2810%29.jpg
fg%2B%2811%29.jpg
 

Format                                   : Matroska
Format version                           : Version 4 / Version 2
File size                                : 17.7 GiB
Duration                                 : 2h 19mn
Overall bit rate                         : 18.2 Mbps
Movie name                               : The.Egyptian.1954.BluRay.1080p.DTS.x264-CHD [rutracker.org]
Encoded date                             : UTC 2013-06-20 23:40:31
Writing application                      : mkvmerge v6.1.0 ('Old Devil') built on Mar  2 2013 14:32:37
Writing library                          : libebml v1.3.0 + libmatroska v1.4.0

Video
ID                                       : 1
Format                                   : AVC
Format/Info                              : Advanced Video Codec
Format profile                           : High@L4.1
Format settings, CABAC                   : Yes
Format settings, ReFrames                : 5 frames
Codec ID                                 : V_MPEG4/ISO/AVC
Duration                                 : 2h 19mn
Bit rate                                 : 18.0 Mbps
Width                                    : 1 920 pixels
Height                                   : 752 pixels
Display aspect ratio                     : 2.553
Frame rate mode                          : Constant
Frame rate                               : 23.976 fps
Color space                              : YUV
Chroma subsampling                       : 4:2:0
Bit depth                                : 8 bits
Scan type                                : Progressive
Bits/(Pixel*Frame)                       : 0.520
Stream size                              : 17.2 GiB (97%)
Title                                    : The.Egyptian.1954
Writing library                          : x264 core 116 r2057 0ba8a9c
Language                                 : English
Default                                  : Yes
Forced                                   : Yes

Audio
ID                                       : 2
Format                                   : MPEG Audio
Format version                           : Version 1
Format profile                           : Layer 3
Mode                                     : Joint stereo
Mode extension                           : MS Stereo
Codec ID                                 : A_MPEG/L3
Codec ID/Hint                            : MP3
Duration                                 : 2h 19mn
Bit rate mode                            : Constant
Bit rate                                 : 192 Kbps
Channel(s)                               : 2 channels
Sampling rate                            : 44.1 KHz
Compression mode                         : Lossy
Stream size                              : 192 MiB (1%)
Writing library                          : LAME3.98.2
Default                                  : Yes
Forced                                   : No



dowload.gif

doldur.gif


SES VE SENKRON EMCE CANBAY

Gizlenmiş İçerik
İndirme Linkini Görmek İçin Vip Üye Olmalısınız. Eğer Vip Üye İseniz Konuya Teşekkür Edip Linkleri Görebilirsiniz.


ÖNEMLİ NOT:Bu değerli film 13 dakika kadar orjinal dilinde bırakılmıştır...


 


emegesaygi.gif





#2
Nobbyy

Nobbyy

    Ceo

  • Administrators
  • 4.254 İleti
  • Konum:Malatya

Vayy Bee... 59 Senelik Film Ve Efsana Bir Yapıt...

 

Bununla Beraber Hem Full HD 1080P = 21gb

 

 Daha İyisini Veren? :wub:

 

Teşekkürler Emce Canbay..  Yaşayan Efsane :rolleyes: 



#3
Meryemus

Meryemus

    Senarist

  • Üye
  • SMS Onaylı
  • 422 İleti

nostalji ziyafeti için teşekkürler



#4
kesebir

kesebir

    Yönetmen

  • Üye
  • SMS Onaylı
  • 536 İleti

Bu harika nostaljik filmi bizlerle paylaşan Emce Canbay hocama sonsuz teşekkürler.İyiki varsınız.



#5
relaxol

relaxol

    Kameraman

  • Üye
  • SMS Onaylı
  • 265 İleti

harika görüntülerle muhteşem başyapıtlar sayenizde gün yüzüne çıkıyor

teşekkür emeği geçen tüm üstadlara emekleri için saygılar...

(dibnot) sayın nobbyy hocam yanlış görmediysem film 21gb mı acaba bu arada saygılar

____________________________________________________________________________

DÜNYADA HİÇ KİMSE HİÇBİR ŞEYİ DAHA KÖTÜ YAPMADAN DAHA UCUZA SATAMAZ

BİR MALIN SADECE FAYATINA BAKMAK BAZI HİLELERİ KABUL ETMEKTİR


#6
Nobbyy

Nobbyy

    Ceo

  • Administrators
  • 4.254 İleti
  • Konum:Malatya

 

harika görüntülerle muhteşem başyapıtlar sayenizde gün yüzüne çıkıyor

teşekkür emeği geçen tüm üstadlara emekleri için saygılar...

(dibnot) sayın nobbyy hocam yanlış görmediysem film 21gb mı acaba bu arada saygılar

____________________________________________________________________________

DÜNYADA HİÇ KİMSE HİÇBİR ŞEYİ DAHA KÖTÜ YAPMADAN DAHA UCUZA SATAMAZ

BİR MALIN SADECE FAYATINA BAKMAK BAZI HİLELERİ KABUL ETMEKTİR

 

 

 

 

Evet üstad Film 21gb Full Bluray 1080p



#7
cerkes05

cerkes05

    Yeni Üye

  • Üye
  • SMS Onaylı
  • 22 İleti

çok teşekkürler harika bi klasik hemde renkli



#8
heraklius

heraklius

    Yönetmen

  • Vip Üye
  • SMS Onaylı
  • 589 İleti

Emeğinize sağlık,



#9
Nobbyy

Nobbyy

    Ceo

  • Administrators
  • 4.254 İleti
  • Konum:Malatya

Arkadaşlar Film Eklenmiştir. Önemle Hatırlatayım. Film 19.21 GB Yer Kaplamaktadır. Vip Üyelerin Hızı İle Film 1 Günde İnebilir. Ortalama Saat 24 İle 27 Saattir.

 

Önemli Not: Film İnme Sırasında Net Kesilir, Elektirik Giderse Filme Sağ Tıkla Devam Et De. İDM'de



#10
cerkes05

cerkes05

    Yeni Üye

  • Üye
  • SMS Onaylı
  • 22 İleti

çok teşekkürler harika bi klasik



#11
zoomy

zoomy

    Senarist

  • Üye
  • SMS Onaylı
  • 385 İleti

eyvallah hocam



#12
kitkurd

kitkurd

    Üye

  • Üye
  • 8 İleti

bakalım dediğiniz gibi mi



#13
Magnetic

Magnetic

    Yönetmen

  • Sound Team
  • SMS Onaylı
  • 519 İleti
  • Konum:İstanbul

eline sağlık emce üstad, 1954 yapımı 1080p, boyut yüksek ama film kaçmaz



#14
kadri5tr

kadri5tr

    Senarist

  • Üye
  • SMS Onaylı
  • 342 İleti

Teşekkürler...



#15
dünyalı

dünyalı

    Kameraman

  • Üye
  • SMS Onaylı
  • 184 İleti

Teşekkürler. emeklerinize sağlık.

 

acaba 4 GB boyutlu 720P versiyonu eklenebilirmi acaba.



#16
Korumalık

Korumalık

    Seyirci

  • Banned
  • Pip*Pip*
  • 52 İleti

teşekkür ederim



#17
nostaljisever

nostaljisever

    Dublör

  • Üye
  • SMS Onaylı
  • 141 İleti

çok teşekkürler



#18
peşgir

peşgir

    Yönetmen

  • Vip Üye
  • SMS Onaylı
  • 972 İleti

selam emce canbay hocam,tarihi nostaljik bir yapımı paylaştıgınız için teşekkürler.dosya boyutu çok fazla.muhakkak görüntü ve sesmükemmel olacaktır.dosya boyutu az olan dvd rip versiyonunuda paylaşırsanız sevinirim.19gb21mb 24saatte indirmek yorucu olsa gerek. emegi geçenlere teşekkürler.hoşçakalın.



#19
mumubi

mumubi

    Anası Bozuk Üye

  • Banned
  • Pip*Pip*Pip*
  • 122 İleti

teşekkür ederim



#20
peşgir

peşgir

    Yönetmen

  • Vip Üye
  • SMS Onaylı
  • 972 İleti
emce canbay hocam,filmi indirdim ses ve görüntü muhteşem.kutlarım.jean simmons'tan androcles and the lion-1952,desiree(napolyonun sevgilsi-1954,black narcissus(kara nergiz)-1947,caesar and cleopatra(nil melikesi)-1945 filmlerini de sitemizde görmek isterm.





Benzer Konular, Anahtar Kelimeler & Etiketler: Jean Simmons, Victor Mature, Gene Tierney, Michael Wilding, Bella Darvi, Peter Ustinov, Edmund Purdom

0 Kullanıcı konuyu okuyor

0 Kullanıcı, 0 Misafir, 0 Kayıtsız kullanıcı